Wmrest.ru

WordPress Rus / Александр невский скачать видео бесплатно

Александр невский скачать видео бесплатно

Гость " 05 июл 2014, 23:49

  • Александр невский скачать видео бесплатно один

Год выпуска: 1938
Жанр: Военный, Драма, Боевик

Описание фильма:
На западные рубежи Руси наступают войска Тевтонского Ордена. Они захватывают Псков, мучают и убивают местных жителей. Рыцари заранее делят ещё не завоеванные русские земли, присваивая себе титулы князей и надеясь на поддержку Папы Римского. Новгородский люд на вече решает собирать дружину и звать на командование ей опытного полководца князя Александра, прозванного Невским. Двое богатырей — Гаврила Алексич и Васька Буслаев (реальные личности) — сватаются к одной девице, и она решает, что выберет того, кто лучше покажет себя в битве.

Войска сходятся к берегам замёрзшего Чудского озера. Перед боем один дружинник рассказывает князю басню о лисице, застрявшей в развилке дерева, куда её заманил заяц. Александр поступает похожим образом: строит свои войска, в то время как "кабан" тевтонцев наступает прямо по центру. Русичи окружают врага, зажимают в "" и разбивают его. Бросившиеся в бегство немцы тонут, проламывая тяжелыми доспехами лёд. Предводители агрессоров попадают в плен…

Режиссер: Сергей Эйзенштейн, Дмитрий Васильев, Борис Иванов
Актеры: Николай Черкасов, Николай Охлопков, Андрей Абрикосов, Дмитрий Орлов, Василий Новиков, Николай Арский, Варвара Массалитинова, Валентина Ивашева, Александра Данилова, Владимир Ершов, Сергей Блинников, Иван Лагутин, Лев Фенин, Наум Рогожин, Николай Апарин, Леонид Иудов, Фёдор Одиноков, Иван Клюквин, Николай Тарасов

Продолжительность: 01:48:40
Качество видео: DVDRip

Видеокодек: MPEG-4 AVC/H.264
Битрейт видео:

2352 Кбит/с
Размер кадра: 706х480
Аудиокодек: AC3 2.0
Битрейт аудио: 192 Кбит/с

Время раздачи: Пн, Ср-Вс с 7:00 до 22:00, Вт с 18:00 до 22:00

Общее
Уникальный идентификатор : 229901135242975897219150272929138629112 (0xACF5591A8BB942FA9F87EF1550D659F8)
Полное имя : D:\ФИЛЬМЫ\Александр Невский_1938_DVDRip.mkv
Формат : Matroska
Версия формата : Version 2
Размер файла : 1,97 Гбайт
Продолжительность : 1 ч. 48 м.
Общий поток : 2596 Кбит/сек
Дата кодирования : UTC 2014-05-25 07:12:37
Программа кодирования : mkvmerge v5.2.0 ('I can't explain') built on Dec 18 2011 18:12:03
Библиотека кодирования : libebml v1.2.3 + libmatroska v1.3.0

Видео
Идентификатор : 1
Формат : AVC
Формат/Информация : Advanced Video Codec
Профиль формата :
Параметр CABAC формата : Да
Параметр ReFrames формата : 16 кадров
Идентификатор кодека : V_MPEG4/ISO/AVC
Продолжительность : 1 ч. 48 м.
Битрейт : 2352 Кбит/сек
Ширина : 706 пикселей
Высота : 480 пикселей
Соотношение сторон : 4:3
Режим частоты кадров : Постоянный
Частота кадров : 23,976 кадра/сек
Цветовое пространство : YUV
Субдискретизация насыщенности : 4:2:0
Битовая глубина : 8 бит
Тип развёртки : Прогрессивная
Бит/(Пиксели*Кадры) : 0.289
Размер потока : 1,79 Гбайт (91%)
Библиотека кодирования : x264 core 130 r2273 b3065e6
Настройки программы : cabac=1 / ref=16 / deblock=1:-1:-1 / analyse=0x3:0x133 / me=umh / subme=10 / psy=1 / psy_rd=0.95:0.00 / mixed_ref=1 / me_range=24 / chroma_me=1 / trellis=2 / 8x8dct=1 / cqm=0 / deadzone=21,11 / fast_pskip=0 / chroma_qp_offset=-2 / threads=12 / lookahead_threads=3 / sliced_threads=0 / nr=0 / decimate=0 / interlaced=0 / bluray_compat=0 / constrained_intra=0 / bframes=10 / b_pyram >Язык : English
Default : Да
Forced : Нет
Основные цвета : BT.601 NTSC
Характеристики трансфера : BT.601
Коэффициенты матрицы : BT.601

Аудио
Идентификатор : 2
Формат : AC-3
Формат/Информация : Audio Coding 3
Расширение режима : CM (complete main)
Параметр Endianness формата : Big
Идентификатор кодека : A_AC3
Продолжительность : 1 ч. 48 м.
Вид битрейта : Постоянный
Битрейт : 192 Кбит/сек
Каналы : 2 канала
Расположение каналов : Front: L R
Частота : 48,0 КГц
Битовая глубина : 16 бит
Метод сжатия : С потерями
Задержка видео : 150 мс.
Размер потока : 149 Мбайт (7%)
Язык : Russian
Default : Да
Forced : Нет

Скачать шаблон для презентации powerpoint бесплатно математика
Керри скиннер декоративные поверхности энциклопедия скачать бесплатно
Просвещение издательство официальный сайт spotlight скачать бесплатно
Скачать пункт назначения 4 mp4
Петр дранга видео скачать бесплатно